unterstützte Videoformate beim Streaming vom NAS

Antworten
a.fischer
Neues Mitglied
Beiträge: 1
Registriert: Mo 22. Jan 2018, 20:57

unterstützte Videoformate beim Streaming vom NAS

#1 

Beitrag von a.fischer »

Hallo,

ich habe vor kurzem einen Loewe bild 3.43 erworben und möchte jetzt auch Videos von einer Synology DS415play wiedergeben. Bei einigen Clips klappt das auch problemlos, bei anderen erscheint aber ein Dateifehler :cry: .
Gibt es eine Aufstellung, welche Formate bzw. Encodings vom Loewe untestützt werden? Dann könnte ich die nicht lesbaren Dateien z.B. mit Handbrake (unter Windows) konvertieren.

Vielen Dank im Voraus,
Alexander

Benutzeravatar
GEORGzer
Routinier
Beiträge: 355
Registriert: Fr 24. Jun 2016, 00:19
Wohnort: Oberösterreich
Hat sich bedankt: Danksagungen
Danksagung erhalten: Danksagungen

#2 

Beitrag von GEORGzer »

Im Datenblatt steht unter Digital-Empfang: MPEG / MPEG2 / MPEG4 (H.264) / HEVC (H.265)
Ich nehme an das wird bei DLNA das gleiche sein.

Bei mir nimmt der bild 3 mp4 und mkv problemlos mit 264 und 265 codec von einer Discstation.
Loewe bild 3.55 UHD - 56460D80 (SL410) + Universal Stand, Feature Upgrade Stick, TV 4k (2017)
Loewe Art 40 FullHD - 54450W85 (SL310F)
Loewe Art 55 UHD (SL310)
Loewe One 40 FullHD (SL302)

Sony KDL-55HX855, TV HD

Benutzeravatar
Pretch
Moderator
Beiträge: 26184
Registriert: Do 14. Apr 2011, 12:37
Händler/Techniker: ja
Wohnort: Loewe Galerie
Hat sich bedankt: Danksagungen
Danksagung erhalten: Danksagungen
Kontakt:

#3 

Beitrag von Pretch »

Ein regelmäßiges und sehr ausgreifendes Thema.
Der Loewe spielt nahezu alles gebräuchliche ab, über Netzwerk genauso wie über USB.
Wichtig dabei ist nur, die Dateien müssen jeweils standardkonform sein.

Wenn du mal ein nicht funktionierendes File in MediaInfo wirfst und die Daten hier postest, können wir dir sagen woran es hängt.

Benutzeravatar
Mifti
Mitglied
Beiträge: 74
Registriert: So 24. Mai 2015, 09:38
Wohnort: Erfurt

#4 

Beitrag von Mifti »

Ich habe dieses Angebot mal wieder ausgegraben, weil ich auch das Problem habe, dass mein bild 7 "Dateifehler" beim Streaming von DJI-Drohnenvideos von der NAS meldet. Ich hätte gerne gewußt, was an dem MP4 Format "falsch" ist bzw. in was ich konvertieren muss, um es auf dem LOEWE zu sehen.


Hier der Auszug aus Mediainfo:

Format : MPEG-4
Format profile : Base Media
Codec ID : isom (isom/iso2/avc1/mp41)
File size : 1.25 GiB
Duration : 4 min 56 s
Overall bit rate : 36.2 Mb/s
Writing application : Lavf56.15.102

Video
ID : 1
Format : AVC
Format/Info : Advanced Video Codec
Format profile : High@L4.1
Format settings : CABAC / 1 Ref Frames
Format settings, CABAC : Yes
Format settings, Reference frames : 1 frame
Format settings, GOP : M=1, N=44
Codec ID : avc1
Codec ID/Info : Advanced Video Coding
Duration : 4 min 56 s
Bit rate : 36.2 Mb/s
Width : 1 920 pixels
Height : 1 080 pixels
Display aspect ratio : 16:9
Frame rate mode : Constant
Frame rate : 29.970 (30000/1001) FPS
Color space : YUV
Chroma subsampling : 4:2:0
Bit depth : 8 bits
Scan type : Progressive
Bits/(Pixel*Frame) : 0.582
Stream size : 1.25 GiB (100%)
Codec configuration box : avcC
Loewe bild 7.55
Loewe Subwoofer 800
B & W 706 S2 Front
Loewe Stand speaker Slim ID Rear
Loewe Individual Mediacenter DR+
Panasonic DP-UB9004
Apple TV 4K

fswerkstatt
Spezialist
Beiträge: 2391
Registriert: Sa 16. Apr 2011, 20:48
Händler/Techniker: ja
Wohnort: Rhein-Sieg-Kreis
Hat sich bedankt: Danksagungen
Danksagung erhalten: Danksagungen
Kontakt:

#5 

Beitrag von fswerkstatt »

Eventuell dieser isom Codec?

Jag das Teil mal durch MKVToolNix.
bild 7.55 OLED SL420 β-SW (DVB-S, DVB-C), TSM, Home Cinema Set 2.1, Mediavision 3D, FireTV Stick 4k
Connect 55 UHD SL420 β-SW (SAT>IP, DVB-T2)
Xelos 32 SL DR+ L2715 (DVB-C)

Benutzeravatar
Mifti
Mitglied
Beiträge: 74
Registriert: So 24. Mai 2015, 09:38
Wohnort: Erfurt

#6 

Beitrag von Mifti »

Vielen Dank! Damit funktioniert es. Ich habe aber nicht genau begriffen woran es technisch lag, dass es ursprünglich nicht funktioniert hat
Loewe bild 7.55
Loewe Subwoofer 800
B & W 706 S2 Front
Loewe Stand speaker Slim ID Rear
Loewe Individual Mediacenter DR+
Panasonic DP-UB9004
Apple TV 4K

RobertoJody
Neues Mitglied
Beiträge: 2
Registriert: Sa 25. Sep 2021, 23:34

update mit Info über Videoformate?

#7 

Beitrag von RobertoJody »

Unser Loewe: Individual 32 gekauft 2012, Fritz!Box NAS externe Festplatte

Einige der Aufnahmen aus der ARD-Mediathek von MediaCatcher kopiert funktionieren einwandfrei, andere überhaupt nicht, keine Meldung, nur "warten" und dann aus ...

Die Aufnahmen kann ich ohne Weiteres auf dem PC, MacBook perfekt sehen.

Könnte jemand hier weiterhelfen: Was heißt eigentlich "standardkonform"?

ws163
Profi
Beiträge: 1458
Registriert: Mo 21. Nov 2011, 21:37
Händler/Techniker: ja
Hat sich bedankt: Danksagungen
Danksagung erhalten: Danksagungen

#8 

Beitrag von ws163 »

Hi,
genauere Angabe von Chassis und SW-Stand wären nett.
Und wie weiter oben schon geschrieben mal von einem nicht laufenden Video die Daten von Mediainfo hier posten
Gruß
Wolfgang
Loewe bild 3/55 OLED SL510 Beta, SkyQ, ATV4K, Samsung UBD-K8500 , Sonos Playbar,Sub,2 Play1
Loewe Art32 DR+ SL150 mit VU+ Zero, ChromeCast, Leelbox M9S Pro, Soundprojektor ID
Loewe bild 1/43 SL502 Beta, ATV HD, FireTV Qube, BluTechVision 3D
Loewe Connect 40 SL420 Beta, VU+4k,ATV3,Fire TV, Pioneer AV-Receiver per ARC, MiBox S, Fire TV 4k

RobertoJody
Neues Mitglied
Beiträge: 2
Registriert: Sa 25. Sep 2021, 23:34

#9 

Beitrag von RobertoJody »

vielen Dank für die sehr schnelle Antwort, Wolfgang!
Wir sind technisch noch Anfänger ...

aber Chassis haben wir herausgefunden: SL150.

Aber SW-Stand? Software? Wir aktualisieren die Software jedes Mal es verlangt wird ... und mussten wieder suchen, wie man die aktuelle Software findet ... über Einstellungen... Sonstiges... aber auch hier erfolgreich:
V8.46.0

Mediainfo haben wir jetzt gegoogelt - wussten wir nicht von der Software! Oder von der Möglichkeit ganz einfach online die Daten zu bekommen. Für andere Anfänger hier der Link: https://mediaarea.net/MediaInfoOnline

Und hier die Daten des nicht spielbaren Videos:
Format : MPEG-4
Format profile : Base Media / Version 2
Codec ID : mp42 (isom/mp41/mp42)
File size : 1.38 GiB
Duration : 30 min 7 s
Overall bit rate mode : Variable
Overall bit rate : 6 558 kb/s
Encoded date : UTC 2021-09-25 20:10:54
Tagged date : UTC 2021-09-25 20:11:04

Video
ID : 1
Format : AVC
Format/Info : Advanced Video Codec
Format profile : High@L5.1
Format settings : CABAC / 4 Ref Frames
Format settings, CABAC : Yes
Format settings, Reference frames : 4 frames
Codec ID : avc1
Codec ID/Info : Advanced Video Coding
Duration : 30 min 7 s
Source duration : 30 min 7 s
Bit rate : 6 495 kb/s
Width : 1 920 pixels
Height : 1 080 pixels
Display aspect ratio : 16:9
Frame rate mode : Variable
Frame rate : 49.680 FPS
Minimum frame rate : 8.310 FPS
Maximum frame rate : 50.000 FPS
Color space : YUV
Chroma subsampling : 4:2:0
Bit depth : 8 bits
Scan type : Progressive
Bits/(Pixel*Frame) : 0.063
Stream size : 1.37 GiB (99%)
Source stream size : 1.37 GiB (99%)
Title : Core Media Video
Encoded date : UTC 2021-09-25 20:10:54
Tagged date : UTC 2021-09-25 20:11:04
Codec configuration box : avcC

Audio
ID : 2
Format : AAC LC
Format/Info : Advanced Audio Codec Low Complexity
Codec ID : 2 / 40 / mp4a-40-2
Duration : 29 min 54 s
Source duration : 29 min 54 s
Bit rate mode : Variable
Bit rate : 56.1 kb/s
Maximum bit rate : 58.9 kb/s
Channel(s) : 2 channels
Channel layout : L R
Sampling rate : 48.0 kHz
Frame rate : 46.875 FPS (1024 SPF)
Compression mode : Lossy
Stream size : 12.0 MiB (1%)
Source stream size : 12.0 MiB (1%)
Title : Core Media Audio
Default : Yes
Alternate group : 1
Encoded date : UTC 2021-09-25 20:10:54
Tagged date : UTC 2021-09-25 20:11:04

Antworten

Zurück zu „NAS, Server, Router“